Index Of Queen Flac

98: Queens of the Stone Age / Villains 140 / 150 Gram Vinyl Record + Download Code with D Side Etching AMAT. The album was influenced by the hard rock, progressive rock and heavy metal of the day. Pay $2500-3k to have them painted and be happy every morning. Released on 13 July 1973 by EMI Records in the UK and by Elektra Records in the US, it was recorded at Trident Studios and De Lane Lea Music Centre, London, with production by Roy Thomas Baker, John Anthony and the band members themselves. From their gloriously ambitious self-titled debut album of 1973 through to the album that put them in the superstar bracket, 1975 s A Night At The Opera, and beyond, this unique group carved out a singular path as the most visionary, inventive and charismatic band of that epic decade. Wild Mountain Thyme. :: Size: 348,81 MB (flac. (annual flac rant): The lack of JRiver official support for Flac is one of my biggest annoyances with one of the best pieces of software out there. Performer: Queen Album: News Of The World Label: Virgin EMI Records, Universal Music. I Never Wear White 04. Artist: Rikard Sjoblom's Gungfly Title Of Album: Alone Together Year Of Release: 2020 Label (Catalog#): InsideOut Music [19439782702] Country: Sweden Genre: Progressive Rock Quality: FLAC (*image +. The University of Aberdeen will host an Undergraduate Virtual Open Day on Saturday 3 October and a Postgraduate Virtual Open Day on Friday 9 October. Watch all the videos from Queen's Greatest Hits Volume 1 in this video. It’s been our pleasure to provide UK audiophiles with the best hi res music downloads. Made in DE. 0kHz Read More July 10, 2020 Jul 06, 2018 · [FLAC] [572MB] Album Original, The Weeknd - Starboy 2016 Starboy is the third studio album by Canadian singer The Weeknd. Rush July 9, 2015 Kansas City, Missouri, USA Sprint Center "R40KC" Xavel Silver Masterpiece Series XAVEL-SMS-053 Japanese 3 CD set Contrast clause: The material in this torrent is different than any other recording of Kansas City July 9, 2015 known to appear on the tracker. Titres similaire Queen - Bohemian Rhapsody (The Original Soundtrack) + [FLAC] & [Hi-Res] Multi-interprètes - 13 Reasons Why (A Netflix Original Series Soundtrack) Various Artists - Sucker Punch (Original Motion Picture Soundtrack) + [FLAC]. zip: ~ 951 mb CD1: 01. If you are listening on local earphones, you won't be able to spot the difference as there is no b. Many of his releases are outputted as FLAC files and sound absolutely amazing, especially when listening with earphones or headphones (the higher the quality of headphones, the better). Youngest N Richest (1:44)02. Queen - In the Lap of the Gods [02:43] 4. cue) Bitrate: lossless Covers: in archive. 0 MB) 04 - Love Of My Life. We thank you for your patronage. Super MP3 download always brings the hottest songs of 14 categories, from choose specific edition of live, piano, guitar. FORMAT: Text only SIZE: 4. flac: 2019-07-02: 陈壹千 - 三个. Previous Post: Queen – Queen (1973/2015) [AcousticSounds FLAC 24/96] Next Post: Offa Rex – The Queen Of Hearts (2017) [HDTracks FLAC 24/88,2] Leave a Reply Cancel reply. To test if the plant is ready for watering, push your index finger halfway into the soil. 99 Free FLAC to MP3 Converter is a lightweight and unobtrusive app that converts FLAC files to the MP3 format. 16-bit FLAC Preview The Platinum Collection (Greatest Hits I II & III - 2011 Remaster) The Platinum Collection (Greatest Hits I II & III - 2011 Remaster) Queen 2019 From $27. Ava DuVernay's contemporary drama Queen Sugar, set in Louisiana, chronicles the lives and loves of the estranged Bordelon siblings: Nova (Rutina Wesley, True Blood), a worldly-wise journalist and activist; Charley (Dawn-Lyen Gardner, Unforgettable), the savvy wife and manager of a professional basketball star; and Ralph Angel (Kofi Siriboe. They were very influential to the music and culutre of their time and for that they earned a place in the Rock and Roll Hall of Fame in 2001. 100 Hits Rock Anthems (2011) 0. com Password: without a password. 21 Savage) (2:36)06. Free FLAC, WMA, APE, MP3 music download now Jul 02, 2020 · Helen Humes – Cross-Eyed Blues 12. Quality: DSD (2. cue), lossless Список форумов » ДЖАЗОВАЯ и БЛЮЗОВАЯ МУЗЫКА » Зарубежный джаз » Bop (lossless). Wild Mountain Thyme. 00b: October 5 2013 at 22:55: Aerosmith - Greatest Hits - Flac. All audio materials on the site are presented for informational purposes only. It is available in multiple formats on that page, including FLAC. He Say She Say (2:24)05. flac: 2019-07-02: 艾怡良-寂寞无害. Queen was a British rock band circa 1970-today (if you want to be technical). Performer: Queen Album: News Of The World Label: Virgin EMI Records, Universal Music. BENI – だけど放て download zip rar mp3 aac m4a flac…. It’s been our pleasure to provide UK audiophiles with the best hi res music downloads. 42 Peak level 95. Queen mixes in FLAC (with links!) QueenZone user C_Matt is known within the community as one of the best "amateur" producers of several Queen albums and songs. com Password: without a password. Wide choice fresh albums, various artists compilations. 5/10 Queen’s second album of 1974, after May was struck down by illness and was unable to tour, Sheer Heart Attack is the middle part of Queen’s golden trilogy of albums in the mid-1970s – it’s less epic than Queen II or Night Of the Opera but it’s still packed with entertaining tracks. We only index and link to content provided by other sites. Toya Turnup Talks (skit) (0:36)07. 05 Get Back. August 2014, 11:26 Queen / Queen II PT-SHM Used drive : PLEXTOR BD-R PX-B950SA Adapter: 6 ID: 0. FLAC pt2 - mirror. Robin Trower - The Bob Harris Sessions (FM/FLAC) Queen - From The Beeb To Tokyo (FM/FLAC) Nico - 1982-10-06 - Roskilde, DK (SBD/FLAC) David Bowie - 1976-02-26 - Toronto, Canada (AUD/FLAC) Paul McCartney - 2018-12-16 - London, UK (IEM/FLAC) Lou Reed - 1989-06-28 - Milan, IT (AUD/FLAC) John Cipollina - 1984-01-14 - Berkeley, CA (SBD/FLAC). 16-bit FLAC Preview The Platinum Collection (Greatest Hits I II & III - 2011 Remaster) The Platinum Collection (Greatest Hits I II & III - 2011 Remaster) Queen 2019 From $27. Madonna 'Hidden Gems Volume 1' 2CD Limited Edition 2018 (2018 Martigen : CDHG1) Released: 2018 Encoded: FLAC File Format & [email protected] Kbps A collection of demos, unreleased tracks, B-sides and rarities. Many of his releases are outputted as FLAC files and sound absolutely amazing, especially when listening with earphones or headphones (the higher the quality of headphones, the better). Release - August 21, 2020Genre - Hip-Hop/RapQuality - MP3, 320 kbps CBR / FLAC Tracklist:01. ilCorSaRoBlu. Download return of a queen dawn richards mp3 free found at youtube. Catalog #: 277 998 7 Style: Classic Rock Year: 1989 (2011) Format: FLAC (image +. flac: 2019-07-02: 艾怡良-Forever Young. Sheer Heart Attack. 0 % Test CRC 1978A8D7 Copy CRC 1978A8D7 Accurately ripped (confidence 25) [1734B8F1] (AR v2) Copy OK Track 2. 8 MB) 08 - Tutti Frutti. Its public white sandy beach is one of the longest and nicest on the island, its lagoon is protected by the surrounding coral reefs, the beach provide spectacular views over the Indian Ocean horizon and of Le Morne Brabant Peninsula located in the south west of. Canada Jam was a rock music festival concert held at Mosport Park in Bowmanville, Ontario Canada, about 100 kilometres east of Toronto, on August 26, 1978. Queen - Under Pressure [03:41] 8. Tracklist: Let Me In Your Heart Again Love Kills – The Ballad There Must Be More To Life Than This (William Orbit Mix) Play The Game Dear Friends You’re My Best Friend Love Of My Life Drowse You Take My Breath Away Spread Your Wings. Parent Directory. 9 MB) 06 - You're So Square. The University of Aberdeen will host an Undergraduate Virtual Open Day on Saturday 3 October and a Postgraduate Virtual Open Day on Friday 9 October. Download surround sound and lossless music | DVD-Audio, DTS-CD, SACD, Audio-DVD, DTS 5. 2 MB) Queen -The Concert In London (Disc 1) 05 - Magic. Artist: Rikard Sjoblom's Gungfly Title Of Album: Alone Together Year Of Release: 2020 Label (Catalog#): InsideOut Music [19439782702] Country: Sweden Genre: Progressive Rock Quality: FLAC (*image +. BENI – だけど放て download zip rar mp3 aac m4a flac…. They were very influential to the music and culutre of their time and for that they earned a place in the Rock and Roll Hall of Fame in 2001. SCANDAL - Queens Are Trumps -Kirifuda Wa Queen- 2012 FLAC SUBMITTED BY: ruffbergkitops DATE: Jan. [Flac] Gregorian Chants pop Chorus - Test&Copy + Cue - Progetto Queen (Lossless Crew) Screenshots Categoria. flac: 2019-07-02: Magic - rude. flac: 2019-07-05: 陈奕迅&eason and the duo band - 我们万岁-. Chiba Marine Stadium). mp3: 26-Jul-2008 19:49 : 9. flac 24 MB; 06. 0) 1 Bit / 2,8 MHz (ISO) + FLAC 24 bit / 88. 703 Greatest 1980's music hit Singles [FLAC] 0. 1, DVD, FLAC, APE | Archive of surround sound and lossless music for free. Quality: FLAC 24 bit / 44. 3 MB) 07 - Mary Lou. Channel: LED Lichttechnik » Sony. Labels: Jefferson Starship. Queen - In the Lap of the Gods [02:43] 4. Tracklist: Let Me In Your Heart Again Love Kills – The Ballad There Must Be More To Life Than This (William Orbit Mix) Play The Game Dear Friends You’re My Best Friend Love Of My Life Drowse You Take My Breath Away Spread Your Wings. Many of his releases are outputted as FLAC files and sound absolutely amazing, especially when listening with earphones or headphones (the higher the quality of headphones, the better). Category: flac Bring It Back (The Hitmen Remix) - Klubbingman - Welcome To The Club 16. Pink Floyd - The Dark Side of the Moon - Time (FLAC). Parent Directory - 001) Led Zeppelin - Stairway to Heaven. 05 Get Back. The March Of The Black Queen (take 4 - source: convention tape - remastered by Everly) 12. scthom's effort is fantastic, but JRiver: there is really no excuse not to eventually make flac support INCORPORATED into new MC builds, just like every other popular format: MPC, Wavpack, etc etc. Index of / Name Last modified Size Description : itunesstoreconnexion/ 2020-07-30 02:32 - license. Queen are a British rock band that formed in London in 1970. 0 % Test CRC 1978A8D7 Copy CRC 1978A8D7 Accurately ripped (confidence 25) [1734B8F1] (AR v2) Copy OK Track 2. 16-bit FLAC Preview The Platinum Collection (Greatest Hits I II & III - 2011 Remaster) The Platinum Collection (Greatest Hits I II & III - 2011 Remaster) Queen 2019 From $27. Pull Up (feat. flac" WAVE TRACK 01 AUDIO TITLE "Going Back" PERFORMER "Larry Lurex" INDEX 01 00:00:00 TRACK 02 AUDIO TITLE "Mad the Swine" PERFORMER "Queen" INDEX 00 03:16:56 INDEX 01 03:16:57. By that time, Freddie Mercury had already been regarded one of the leading rock singers. Walking In The Queen's Garden. FLAC is the aⅽronym for Free Lossless Audio Codec. The Queen musical legacy has broken records worldwide. Catalog #: 00602557842678 Style: Rock, Pop Rock, Hard Rock Year: 2017 Format: FLAC (image +. flac: 2019-07-02: 艾怡良-寂寞无害. Queen / Queen FLAC 96kHz/24bit Download XUNI341367F96 $17. FLAC frontend (Windows GUI) Flac-Jacket: a set of scripts for creating FLAC files and an HTML index; FLACTAG: tags single album FLAC files with embedded CUE sheets using data from the MusicBrainz service; MacFLAC Mac OS X FLAC distribution; FLACer for Mac OS X; MP3FS, a read-only FUSE filesystem which can transcode FLAC to MP3 on the fly. Index of hindi flac Index of hindi flac. mp3: 26-Jul-2008 19:49 : 9. TITLE "The Many Faces of Queen - A Journey Throught the Inner World of Queen" FILE "Various Artists - The Many Faces of Queen - A Journey Throught the Inner World of Queen. Flat soundboard Or Ex Audience:: Cd-R:: Lossless FLAC. Queen are a British rock band that formed in London in 1970. 00b: October 5 2013 at 22:55: Ace. Performer: Queen Album: The Miracle Label: Island Records. 00b: October 5 2013 at 22:55: A-Ha - The Singles 1984-2004 (Flac) 0. 42 Peak level 95. Queen - Under Pressure [03:41] 8. 24-bit FLAC Preview The Show Must Go On (Live At The O2, London, UK, 04/07/2018) The Show Must Go On (Live At The O2, London, UK, 04/07/2018) Queen 2020 From £0. Spanish Rose. 99 Free FLAC to MP3 Converter is a lightweight and unobtrusive app that converts FLAC files to the MP3 format. We thank you for your patronage. Bohemian Rhapsody, Prophets Song, Brighton Rock, Sheer Heart Attack, Another One Bites The Dust, Seven Seas Of Rhye, Killer Queen, Seaside Rendezvous, The Millionaire Waltz, Keep Yourself Alive, Innuendo, The March Of The Black Queen, 39", Good Old Fashioned Lover Boy. They were very influential to the music and culutre of their time and for that they earned a place in the Rock and Roll Hall of Fame in 2001. Destruction (Ger) - Sentence Of Death (1984) [Lossless FLAC Vinyl Rip] Killjoy1974. The album was influenced by the hard rock, progressive rock and heavy metal of the day. 2M: 002) Van Halen - Eruption. King Of The Light 06. You Re All Alone 02. Email This BlogThis! 02 Acid Queen. Previous Post: Queen - Queen (1973/2015) [AcousticSounds FLAC 24/96] Next Post: Offa Rex - The Queen Of Hearts (2017) [HDTracks FLAC 24/88,2] Leave a Reply Cancel reply. 2020 Grogal. Made in DE. 1 kHz (Tracks) Artist: Mary Coughlan Title: Life Stories Released: 2020 Style: Jazz, Vocal Jazz RAR Size: 247 / 448 Mb Album information I like. To test if the plant is ready for watering, push your index finger halfway into the soil. It was developed by tһe foundation, a non-revenue group that produces open and free to maҝe use of multimedia codecs, and had its іnitiɑl launch in 2001. Ava DuVernay's contemporary drama Queen Sugar, set in Louisiana, chronicles the lives and loves of the estranged Bordelon siblings: Nova (Rutina Wesley, True Blood), a worldly-wise journalist and activist; Charley (Dawn-Lyen Gardner, Unforgettable), the savvy wife and manager of a professional basketball star; and Ralph Angel (Kofi Siriboe. 00b: October 5 2013 at 22:55: Abba-Golden_Greatest_Hits-CDM-2006-LOSSLESS-JVL: 0. The MP3 files are very good quality 128K encodes. City Girls) (3:14)04. I Was Born To Sing The Blues. 0 MB) 04 - Love Of My Life. Select the profile with the desired file format from Convert”. TITLE "The Many Faces of Queen - A Journey Throught the Inner World of Queen" FILE "Various Artists - The Many Faces of Queen - A Journey Throught the Inner World of Queen. cue) Bitrate: lossless Covers: in archive. Channel: LED Lichttechnik » Sony. mkv Performer: Japanese Synchro System Title: Japanese Synchro System Released: Aug 2006 Label: Life Line Country: Japan Style. 0b3" PERFORMER "Queen" TITLE "Innuendo (CDP 795887 2)" FILE "Queen - Innuendo (CDP 795887 2). Watch all the videos from Queen's Greatest Hits Volume 1 in this video. scthom's effort is fantastic, but JRiver: there is really no excuse not to eventually make flac support INCORPORATED into new MC builds, just like every other popular format: MPC, Wavpack, etc etc. Find the best information and most relevant links on all topics related toThis domain may be for sale!. com Password: without a password. 1, DVD, FLAC, APE | Archive of surround sound and lossless music for free. All albums are in FLAC and MP3 format. All Night Long. In 1975, Queen experienced a grand breakthrough. I Was Born To Sing The Blues. Queen - Another One Bites the Dust [04:53] 9. 99 Free FLAC to MP3 Converter is a lightweight and unobtrusive app that converts FLAC files to the MP3 format. 2M: 002) Van Halen - Eruption. FLAC stands for Free Lossless Audio Codec, an audio format similar to MP3, but lossless, meaning that audio is compressed in FLAC without any loss in quality. Many of his releases are outputted as FLAC files and sound absolutely amazing, especially when listening with earphones or headphones (the higher the quality of headphones, the better). to The William Blake Archive Newsletter. Category: flac Bring It Back (The Hitmen Remix) - Klubbingman - Welcome To The Club 16. Queen - Tie Your Mother Down [03:52] 3. Lead me to some peaceful gloom (Bonvica). Navigation. By that time, Freddie Mercury had already been regarded one of the leading rock singers. flac: 2019-07-02: Queen - We Are The Champions-. Canada Jam was a rock music festival concert held at Mosport Park in Bowmanville, Ontario Canada, about 100 kilometres east of Toronto, on August 26, 1978. © Copyright 2020, The William Blake Archive. Released on 13 July 1973 by EMI Records in the UK and by Elektra Records in the US, it was recorded at Trident Studios and De Lane Lea Music Centre, London, with production by Roy Thomas Baker, John Anthony and the band members themselves. 5/10 Queen’s second album of 1974, after May was struck down by illness and was unable to tour, Sheer Heart Attack is the middle part of Queen’s golden trilogy of albums in the mid-1970s – it’s less epic than Queen II or Night Of the Opera but it’s still packed with entertaining tracks. It was developed by tһe foundation, a non-revenue group that produces open and free to maҝe use of multimedia codecs, and had its іnitiɑl launch in 2001. Queen – Greatest Hits In Japan (2020) Queens of the Stone Age – Songs for the Deaf (2019) Queen – Morumbi Brazil 1981 (Live) (2019) Queen of Jeans – If You’re Not Afraid, I’m Not Afraid (2019) Queen Moo – Faint Sounds of Us Hanging Out (2019) Queen Bee and The Honeylovers – Asheville (2019) Queen Key – Eat My Pussy Again (2019). 1997-08-11 Starlake Amphitheater, Pittsburgh, PA USA [FLAC], FLAC rip from a commercial bootleg (audience). flac 56 MB 04 The Indian Queen, Z. Depends what you like, they try out various different styles. All albums are in FLAC and MP3 format. Quality: FLAC 16 bit / 44. Lossless-DDisC: 0. Harmonica Breakdown [instrumental]. Queen – Queen Forever Released: 2014 Genre: Rock Bitrate: FLAC & MP3 320 KBPS. 201/Music/Flac/Muzic FLAC/Queen - Greatest Hits - FLAC - HellraiserRG. Attempting to cover songs as intensely personal as Ian Curtis' Joy Division swansong, "Love Will Tear Us Apart" is a risky business, and though Michael Gira more or less disowned this release some years back, it has considerable charms that make it worth seeking out. Catalog #: 00602557842678 Style: Rock, Pop Rock, Hard Rock Year: 2017 Format: FLAC (image +. 于果 - 侧脸(Hi-Res). CD Ripper, Album Art Fixing, Asset UPnP Server. Power Of Evil 08. 0) 1 Bit / 2,8 MHz (ISO) + FLAC 24 bit / 88. Stillhead is a DJ and music producer, he hosts the Insight show and runs the Cut (2) and Brightest Dark Place labels. In 1975, Queen experienced a grand breakthrough. FORMAT: Text only SIZE: 4. Queen - Bohemian Rhapsody Artist: Queen | Album: Bohemian Rhapsody | Style: Soundtrack | Year: 2018 | Quality: Flac 2. 24-bit FLAC Preview The Show Must Go On (Live At The O2, London, UK, 04/07/2018) The Show Must Go On (Live At The O2, London, UK, 04/07/2018) Queen 2020 From £0. 2 (Freeware) by Super MP3 Download Inc. Track 01. Portrait Of The Knight Of Wands 05. It was recorded at Trident Studios and De Lane Lea Music Centre, London, with production by Roy Thomas Baker (as Roy Baker), John Anthony and Queen. Queen - Seven Seas of Rhye [01:18] 5. Walking In The Queen's Garden. 04 Hot Legs. 6M: 003) Lynyrd Skynyrd - Freebird. Artist: Winifred Atwell Title: The Queen of Piano (Remastered) Year Of Release: 2020 Label: Master Tape Records Genre: Blues, Jazz, Piano, Boogie Woogie Quality: FLAC (tracks) Total Time: 02:35:12 Total Size: 675 mb. Goodes Hall Queen's University Kingston, Ontario Canada K7L 3N6 1. 2M: 002) Van Halen - Eruption. Previous Post: Queen – Queen (1973/2015) [AcousticSounds FLAC 24/96] Next Post: Offa Rex – The Queen Of Hearts (2017) [HDTracks FLAC 24/88,2] Leave a Reply Cancel reply. We only index and link to content provided by other sites. Jacob And The Angel 07. The March Of The Black Queen (take 5 - source: convention tape) 13. ilCorSaRoBlu. Made in DE. Man On The Prowl 03:31. 就爱FLAC无损音乐下载「92flac. Canada Jam was a rock music festival concert held at Mosport Park in Bowmanville, Ontario Canada, about 100 kilometres east of Toronto, on August 26, 1978. 0 X Track quality 100. Download surround sound and lossless music | DVD-Audio, DTS-CD, SACD, Audio-DVD, DTS 5. This is a list of all Queen albums in order of release date but only those albums released as Queen. Index of ftp://89. 98: Queens of the Stone Age / Villains 140 / 150 Gram Vinyl Record + Download Code with D Side Etching AMAT 11125 $27. If you want to download the entire concert in FLAC, the easiest way is to use the "Lossless zip" link located on the left side of the page where it says, "Play / Download. EAC Rip | Flac(tracks) - cue - log | House | 194 MB Index Avril Lavigne Collection Essential Mixes (2010) David Guetta Collection Nothing But the Beat (2011) [email protected] [FLAC]One More Love (2011) Deat. This section has the complete Queen album discography. Spanish Rose. August 31, 2020: Explore the download and CD catalog below or stream the entire Live Metallica concert catalog on-demand with a nugs. 00b: October 5 2013 at 22:55: A-Ha - The Singles 1984-2004 (Flac) 0. (Blue Cafe 146A/B) Recorded Live at El Paso Country Colosseum, El Paso, Texas, USA - August 18, 1986. com Password: without a password. Quality: FLAC 16 bit / 44. Filename E:\PTH\# Personal Rips\# Various Artists\Awesome 80s\Awesome 80s [Flac]\CD 1\01 - Queen - Another One Bites the Dust. 00b: October 5 2013 at 22:55: Abba-Golden_Greatest_Hits-CDM-2006-LOSSLESS-JVL: 0. Released on 13 July 1973 by EMI Records in the UK and by Elektra Records in the US, it was recorded at Trident Studios and De Lane Lea Music Centre, London, with production by Roy Thomas Baker, John Anthony and the band members themselves. Great King Rat (take 5 - source: convention tape) 14. The single Killer Queen was the first record by the band to have acclaim in the United States. Bohemian Rhapsody, Prophets Song, Brighton Rock, Sheer Heart Attack, Another One Bites The Dust, Seven Seas Of Rhye, Killer Queen, Seaside Rendezvous, The Millionaire Waltz, Keep Yourself Alive, Innuendo, The March Of The Black Queen, 39", Good Old Fashioned Lover Boy. Yellow Magic Orchestra – YMO Ultimate Collection (2x SACD, 2003) SACD ISO + Hi-Res FLAC; Ryuichi Sakamoto – Thousand Knives (1978) [Japanese Reissue ‘2016] SACD ISO + Hi-Res FLAC. Flat soundboard Or Ex Audience:: Cd-R:: Lossless FLAC. Parent Directory. Channel: LED Lichttechnik » Sony. Bitches Brew Miles Davis: 9. Artist: Atomkraft Release: Future Warriors (1985) Genre: NWOBHM, Speed Metal Country: UK Bitrate: FLAC Vinyl rip (950kbps - 44kHz) Dead Link ----- Infos: , -----. EAC Rip | Flac(tracks) - cue - log | House | 194 MB Index Avril Lavigne Collection Essential Mixes (2010) David Guetta Collection Nothing But the Beat (2011) [email protected] [FLAC]One More Love (2011) Deat. 00b: October 5 2013 at 22:55: Aerosmith - Greatest Hits - Flac. The author of this Blog has not uploaded any of the softwares , games, music or eBooks links. Hot Lovin 11. gz; Algorithm Hash digest; SHA256: 65225db34627c578ef0e11c8b1eb528bb35e024752f6f10b78c011f6f64c4127: Copy MD5. [Flac] Gregorian Chants pop Chorus - Test&Copy + Cue - Progetto Queen (Lossless Crew) Screenshots Categoria. Tell No Lies 03. August 31, 2020: Explore the download and CD catalog below or stream the entire Live Metallica concert catalog on-demand with a nugs. 00b: June 9 2013 at 19:18: Beatles: 0. Join us today for the ultimate listening experience!. Its public white sandy beach is one of the longest and nicest on the island, its lagoon is protected by the surrounding coral reefs, the beach provide spectacular views over the Indian Ocean horizon and of Le Morne Brabant Peninsula located in the south west of. CD Ripper, Album Art Fixing, Asset UPnP Server. Made in DE. 703 Greatest 1980's music hit Singles [FLAC] 0. Queen Elizabeth II knighted 100-year-old Tom Moore, a World War II veteran who raised $40 million for Britain’s National Health Service. Released on 13 July 1973 by EMI Records in the UK and by Elektra Records in the US, it was recorded at Trident Studios and De Lane Lea Music Centre, London, with production by Roy Thomas Baker, John Anthony and the band members themselves. Performer: Queen Album: News Of The World Label: Virgin EMI Records, Universal Music. Canada Jam was a rock music festival concert held at Mosport Park in Bowmanville, Ontario Canada, about 100 kilometres east of Toronto, on August 26, 1978. 5 % Extraction speed 2. 0b3" PERFORMER "Queen" TITLE "Innuendo (CDP 795887 2)" FILE "Queen - Innuendo (CDP 795887 2). We thank you for your patronage. The video is made up of some of Queen's best known singles since their first chart ap. Queen - Greatest Hits - The Show Must Go On (FLAC). 04 Hot Legs. The author of this Blog has not uploaded any of the softwares , games, music or eBooks links. 16-bit FLAC Preview The Platinum Collection (Greatest Hits I II & III - 2011 Remaster) The Platinum Collection (Greatest Hits I II & III - 2011 Remaster) Queen 2019 From $27. All albums are in FLAC and MP3 format. 1980's 'The Game' was the first Queen made a glossy, unabashed pop album. Queen - Another One Bites the Dust [04:53] 9. 63 Gb + 783 Mb Tracklist: 01. 43 gb Upload: nitroflare. © Copyright 2020, The William Blake Archive. Email This BlogThis! 02 Acid Queen. Performer: Queen Album: News Of The World Label: Virgin EMI Records, Universal Music. uk is officially closed. Free FLAC, WMA, APE, MP3 music download now Jul 02, 2020 · Helen Humes – Cross-Eyed Blues 12. 5/10 Queen’s second album of 1974, after May was struck down by illness and was unable to tour, Sheer Heart Attack is the middle part of Queen’s golden trilogy of albums in the mid-1970s – it’s less epic than Queen II or Night Of the Opera but it’s still packed with entertaining tracks. flac: 2019-07-05: 陈奕迅&eason and the duo band - 我们万岁-. Artist: Atomkraft Release: Future Warriors (1985) Genre: NWOBHM, Speed Metal Country: UK Bitrate: FLAC Vinyl rip (950kbps - 44kHz) Dead Link ----- Infos: , -----. 01 - Spread Your Wings. 9 MB) 06 - You're So Square. Index of hindi flac Index of hindi flac. They were very influential to the music and culutre of their time and for that they earned a place in the Rock and Roll Hall of Fame in 2001. Queen - Under Pressure [03:41] 8. Portrait Of The Knight Of Wands 05. Pull Up (feat. He Say She Say (2:24)05. Keep Yourself Alive 03:47. 8 MB) 05 - Is This The World We Created. flac: 2019-07-02: Queen - We Are The Champions-. Queen - I Want to Break Free [03. Index of ftp://89. Harmonica Breakdown [instrumental]. In n Out (feat. If you want to download the entire concert in FLAC, the easiest way is to use the "Lossless zip" link located on the left side of the page where it says, "Play / Download. Many of his releases are outputted as FLAC files and sound absolutely amazing, especially when listening with earphones or headphones (the higher the quality of headphones, the better). The first of two Queen + Adam Lambert headlining concerts in Japan for the dual-city Summer Sonic festival. CD Ripper, Album Art Fixing, Asset UPnP Server. Queen has to have one of the best back catalogues in music history. EAC Rip | Flac(tracks) - cue - log | House | 194 MB Index Avril Lavigne Collection Essential Mixes (2010) David Guetta Collection Nothing But the Beat (2011) [email protected] [FLAC]One More Love (2011) Deat. cue) Bitrate: lossless Covers: in archive. Performer: Queen Album: News Of The World Label: Virgin EMI Records, Universal Music. Doing Alright (instrumental mix - vocals removed - fake, but very. 43 gb Upload: nitroflare. Taramis (Aus) - Queen of Thieves [Lossless Vinyl Rip] NeeleSteele. flac 19 MB; 04. They were very influential to the music and culutre of their time and for that they earned a place in the Rock and Roll Hall of Fame in 2001. Get access to over 600 exclusive live recordings with a nugs. Flying In Time 07. Super MP3 Download for Mac 4. 于果 - 侧脸(Hi-Res). 2M: 002) Van Halen - Eruption. A 16th Century country pub with dining. The site is dedicated to lossless flac music. Email This BlogThis! 02 Acid Queen. Sheer Heart Attack. On our site you can download lossless music for free and without registration, favorite performers in flac format, for fans to listen to vinyl digitization - Vinyl rip, gourmets of the music world who want to listen to multi-channel music are offered - Audio-DVD, SACD, DTS 5. Artist: Winifred Atwell Title: The Queen of Piano (Remastered) Year Of Release: 2020 Label: Master Tape Records Genre: Blues, Jazz, Piano, Boogie Woogie Quality: FLAC (tracks) Total Time: 02:35:12 Total Size: 675 mb. City Girls) (3:14)04. Super MP3 Download for Mac 4. Diamond Dreamer 04. BENI – だけど放て download zip rar mp3 aac m4a flac…. It's A Hard Life 04:09 04. Super MP3 download always brings the hottest songs of 14 categories, from choose specific edition of live, piano, guitar. 2 (Freeware) by Super MP3 Download Inc. 2 kHz (Tracks) Artist: Queen Title: The Works Released: 1984/2012 Style: Rock RAR Size: 1. City Girls) (3:14)04. 1 kHz (Tracks) Artist: Mathusalemherod Title: Discography (2018-2020) Released: 2020 Style: Power Electronic, Industrial, Ambient RAR Size: 894 Mb Tracklist & Download Links. 5/10 Queen’s second album of 1974, after May was struck down by illness and was unable to tour, Sheer Heart Attack is the middle part of Queen’s golden trilogy of albums in the mid-1970s – it’s less epic than Queen II or Night Of the Opera but it’s still packed with entertaining tracks. 就爱FLAC无损音乐下载「92flac. Act 1, Scene 1: Alexandria. net subscription. Download metal, rock and alternative music. Index **** Queen Liverpool, UK Empire Theatre November 14, 1975 Previously uncirculated, this is the first show of the Queen 1975-11-14 Liverpool, England FLAC/AUD - Guitars101 - Guitar Forums Comparison Shopping. Look at most relevant Download return of a queen dawn richards mp3 free websites out of 747 Thousand at KeywordSpace. FLAC frontend (Windows GUI) Flac-Jacket: a set of scripts for creating FLAC files and an HTML index; FLACTAG: tags single album FLAC files with embedded CUE sheets using data from the MusicBrainz service; MacFLAC Mac OS X FLAC distribution; FLACer for Mac OS X; MP3FS, a read-only FUSE filesystem which can transcode FLAC to MP3 on the fly. FLAC pt1 - mirror. flac tracks, 96kHz/24Bit) | Bitrate. Quality: FLAC 24 bit / 44. cue,log,scans). 16-bit FLAC Preview The Platinum Collection (Greatest Hits I II & III - 2011 Remaster) The Platinum Collection (Greatest Hits I II & III - 2011 Remaster) Queen 2019 From $27. Queen - Queen Forever Released: 2014 Genre: Rock Bitrate: FLAC & MP3 320 KBPS RAR / 406 MB / 503 MB; RAR / 145 MB / 178 MB Tracklist: Let Me In Your. Here at Allflac. Format: FLAC Blue Blur - Sonic Generations Format: FLAC Bomberman Hero (1998) Format: FLAC Castlevania 64 - OST Format: FLAC Castlevania Symphony of the Night Original Soundtrack Format: FLAC Chrono Cross Format: FLAC Chrono Trigger OSV Format: FLAC Contra Spirits OST Format: FLAC Cosmic Osmo Format: FLAC Cro-Mag Rally-Bugdom Format: FLAC. Torrential rain fell midway during the performance but did not put a dampener on things. Bitches Brew Miles Davis: 9. cue) Bitrate: lossless Covers: full (300 DPI) Amount of tracks: 11+11+19 Size ZIP: ~ 1. The video is made up of some of Queen's best known singles since their first chart ap. Queen - In the Lap of the Gods [02:43] 4. Made in DE. 21 Savage) (2:36)06. 19, 2018, 11:06 p. RAR / 406 MB / 503 MB; RAR / 145 MB / 178 MB. Navigation. John Mayall Discografia Flac 1965 - John Mayall Plays John Mayall [live 1964] 1965 - 1966 (Got to be this way) 1966 - Blues B Download lossless music - a large archive of quality music in format flac, ape, wav, free стр. flac" WAVE TRACK 01 AUDIO TITLE "Going Back" PERFORMER "Larry Lurex" INDEX 01 00:00:00 TRACK 02 AUDIO TITLE "Mad the Swine" PERFORMER "Queen" INDEX 00 03:16:56 INDEX 01 03:16:57. flac" WAVE. ilCorSaRoBlu. Tracklist: Let Me In Your Heart Again Love Kills – The Ballad There Must Be More To Life Than This (William Orbit Mix) Play The Game Dear Friends You’re My Best Friend Love Of My Life Drowse You Take My Breath Away Spread Your Wings. 00b: October 5 2013 at 22:55: Abba-Golden_Greatest_Hits-CDM-2006-LOSSLESS-JVL: 0. 21 Savage) (2:36)06. flac 11 MB; 08. 43 gb Upload: nitroflare. Select the profile with the desired file format from Convert”. Filename E:\PTH\# Personal Rips\# Various Artists\Awesome 80s\Awesome 80s [Flac]\CD 1\01 - Queen - Another One Bites the Dust. 1 kHz (Tracks) / FLAC 24 bit / 44. flac" WAVE TRACK 01 AUDIO TITLE "Going Back" PERFORMER "Larry Lurex" INDEX 01 00:00:00 TRACK 02 AUDIO TITLE "Mad the Swine" PERFORMER "Queen" INDEX 00 03:16:56 INDEX 01 03:16:57. Artist: Winifred Atwell Title: The Queen of Piano (Remastered) Year Of Release: 2020 Label: Master Tape Records Genre: Blues, Jazz, Piano, Boogie Woogie Quality: FLAC (tracks) Total Time: 02:35:12 Total Size: 675 mb. Main Page; Recent changes; Random page. Release - August 21, 2020Genre - Hip-Hop/RapQuality - MP3, 320 kbps CBR / FLAC Tracklist:01. 1 kHz (Tracks) Artist: Mathusalemherod Title: Discography (2018-2020) Released: 2020 Style: Power Electronic, Industrial, Ambient RAR Size: 894 Mb Tracklist & Download Links. The March Of The Black Queen (take 5 - source: convention tape) 13. Times Video Queen Knights Captain Tom at Windsor Castle. Released on 13 July 1973 by EMI Records in the UK and by Elektra Records in the US, it was recorded at Trident Studios and De Lane Lea Music Centre, London, with production by Roy Thomas Baker, John Anthony and the band members themselves. gz; Algorithm Hash digest; SHA256: 65225db34627c578ef0e11c8b1eb528bb35e024752f6f10b78c011f6f64c4127: Copy MD5. It's A Hard Life 04:09 04. We would like to show you a description here but the site won’t allow us. flac: 2019-07-05: 陈奕迅&eason and the duo band - 我们万岁-. Track 01. If you are listening on local earphones, you won't be able to spot the difference as there is no b. flac 83 MB. 24-bit FLAC Preview The Show Must Go On (Live At The O2, London, UK, 04/07/2018) The Show Must Go On (Live At The O2, London, UK, 04/07/2018) Queen 2020 From £0. Yellow Magic Orchestra – YMO Ultimate Collection (2x SACD, 2003) SACD ISO + Hi-Res FLAC; Ryuichi Sakamoto – Thousand Knives (1978) [Japanese Reissue ‘2016] SACD ISO + Hi-Res FLAC. He Say She Say (2:24)05. Simcoe Place 200 Front Street West 30th Floor 416. cue) Bitrate: lossless Covers: in archive. Select the profile with the desired file format from Convert”. Queen stormed through the dramatic shifts in the musical landscape during the latter-half of the 1970s, and had successfully remained within the charts and on the lips of music listeners; rightfully taking their place as one of the best rock acts at the turn of the 1980s. Pink Floyd - The Dark Side of the Moon - Time (FLAC). All albums are in FLAC and MP3 format. Find the best information and most relevant links on all topics related toThis domain may be for sale!. Queen mixes in FLAC (with links!) QueenZone user C_Matt is known within the community as one of the best "amateur" producers of several Queen albums and songs. cue) Bitrate: lossless Covers: full (300 DPI) Amount of tracks: 11+11+19 Size ZIP: ~ 1. 630, Act 3 They tell us that you mighty powers above (Orazia). Wide choice fresh albums, various artists compilations. Queen stormed through the dramatic shifts in the musical landscape during the latter-half of the 1970s, and had successfully remained within the charts and on the lips of music listeners; rightfully taking their place as one of the best rock acts at the turn of the 1980s. Spanish Rose. Quality: FLAC 24 bit / 44. Parent Directory - 001) Led Zeppelin - Stairway to Heaven. Chiba Marine Stadium). The FLAC recordsdata you wiѕh to convert to MP3. 05 Get Back. Tear It Up 03:29 03. Battle For The Universe 12. The March Of The Black Queen (take 5 - source: convention tape) 13. You Re All Alone 02. The single Killer Queen was the first record by the band to have acclaim in the United States. flac: 2019-07-02: Magic - rude. This section has the complete Queen album discography. 1 (Compiled by Mind Reflection) (2018). mp3: 26-Jul-2008 19:50 : 1. 1 kHz / 16 Bit Source: 2 x CD Album Artist: Eric Clapton Album Name: Slowhand At 70 - Live At The Royal Albert Hall Label, Catalog: Eagle Rock Entertainment Ltd. "Queen" is the eponymous debut studio album by British rock band Queen, released in July 1973. (Blue Cafe 146A/B) Recorded Live at El Paso Country Colosseum, El Paso, Texas, USA - August 18, 1986. 630, Act 3 They tell us that you mighty powers above (Orazia). Stillhead is a DJ and music producer, he hosts the Insight show and runs the Cut (2) and Brightest Dark Place labels. 8 MB) 08 - Tutti Frutti. your password. 1 kHz (Tracks) / FLAC 24 bit / 44. Necrosanct (UK) - Equal In Death (1990) [Lossless FLAC Vinyl Rip] Killjoy1974. Catalog #: 00602557842678 Style: Rock, Pop Rock, Hard Rock Year: 2017 Format: FLAC (image +. 98: Queens of the Stone Age / Villains 140 / 150 Gram Vinyl Record + Download Code with D Side Etching AMAT 11125 $27. The concert was performed in front of an audience of approximately 50,000 at the QVC Marine Field (a. 00b: October 5 2013 at 22:55: Aerosmith - Greatest Hits - Flac. Find the best information and most relevant links on all topics related toThis domain may be for sale!. Quality: FLAC 16 bit / 44. Index **** Queen Liverpool, UK Empire Theatre November 14, 1975 Previously uncirculated, this is the first show of the Queen 1975-11-14 Liverpool, England FLAC/AUD - Guitars101 - Guitar Forums Comparison Shopping. John Mayall Discografia Flac 1965 - John Mayall Plays John Mayall [live 1964] 1965 - 1966 (Got to be this way) 1966 - Blues B Download lossless music - a large archive of quality music in format flac, ape, wav, free стр. It's A Hard Life 04:09 04. 19, 2018, 11:06 p. 16-bit FLAC Preview The Platinum Collection (Greatest Hits I II & III - 2011 Remaster) The Platinum Collection (Greatest Hits I II & III - 2011 Remaster) Queen 2019 From $27. CD Ripper, Album Art Fixing, Asset UPnP Server. FORMAT: Text only SIZE: 4. flac 11 MB; 08. 0) 1 Bit / 2,8 MHz (ISO) + FLAC 24 bit / 88. 98: Simone Kermes / Rival Queens FLAC 96kHz/24bit Download XSON82641F96. SACD Download. Tell No Lies 03. cue) Bitrate: lossless Covers: in archive. Queen - Under Pressure [03:41] 8. 0/10 2 4 6 8 10 (-) - V / N / V - 53×⇩ - FLAC - Dbmiller. cue) Bitrate: lossless Covers: full (300 DPI) Amount of tracks: 11+11+19 Size ZIP: ~ 1. Download Queen-Discography Plus (1973-2014) FLAC ikar911 Torrent. flac 24 MB; 06. Yellow Magic Orchestra - YMO Ultimate Collection (2x SACD, 2003) SACD ISO + Hi-Res FLAC; Ryuichi Sakamoto - Thousand Knives (1978) [Japanese Reissue '2016] SACD ISO + Hi-Res FLAC. Act 1, Scene 1: Alexandria. Email This BlogThis! 02 Acid Queen. Madonna 'Hidden Gems Volume 1' 2CD Limited Edition 2018 (2018 Martigen : CDHG1) Released: 2018 Encoded: FLAC File Format & [email protected] Kbps A collection of demos, unreleased tracks, B-sides and rarities. Yellow Magic Orchestra – YMO Ultimate Collection (2x SACD, 2003) SACD ISO + Hi-Res FLAC; Ryuichi Sakamoto – Thousand Knives (1978) [Japanese Reissue ‘2016] SACD ISO + Hi-Res FLAC. com Password: without a password. 0b3" PERFORMER "Queen" TITLE "Innuendo (CDP 795887 2)" FILE "Queen - Innuendo (CDP 795887 2). 1 MB) 02 - Ready Freddie. Index **** Queen Liverpool, UK Empire Theatre November 14, 1975 Previously uncirculated, this is the first show of the Queen 1975-11-14 Liverpool, England FLAC/AUD - Guitars101 - Guitar Forums Comparison Shopping. The March Of The Black Queen (take 4 - source: convention tape - remastered by Everly) 12. Radio Ga Ga 05:49 02. Bitches Brew Miles Davis: 9. Format: FLAC Blue Blur - Sonic Generations Format: FLAC Bomberman Hero (1998) Format: FLAC Castlevania 64 - OST Format: FLAC Castlevania Symphony of the Night Original Soundtrack Format: FLAC Chrono Cross Format: FLAC Chrono Trigger OSV Format: FLAC Contra Spirits OST Format: FLAC Cosmic Osmo Format: FLAC Cro-Mag Rally-Bugdom Format: FLAC. Queen Albums. In n Out (feat. Queen - Bohemian Rhapsody Artist: Queen | Album: Bohemian Rhapsody | Style: Soundtrack | Year: 2018 | Quality: Flac 2. 1997-08-11 Starlake Amphitheater, Pittsburgh, PA USA [FLAC], FLAC rip from a commercial bootleg (audience). FLAC frontend (Windows GUI) Flac-Jacket: a set of scripts for creating FLAC files and an HTML index; FLACTAG: tags single album FLAC files with embedded CUE sheets using data from the MusicBrainz service; MacFLAC Mac OS X FLAC distribution; FLACer for Mac OS X; MP3FS, a read-only FUSE filesystem which can transcode FLAC to MP3 on the fly. Performer: Queen Album: News Of The World Label: Virgin EMI Records, Universal Music. Track 01. 16-bit FLAC Preview The Platinum Collection (Greatest Hits I II & III - 2011 Remaster) The Platinum Collection (Greatest Hits I II & III - 2011 Remaster) Queen 2019 From $27. Labels: Jefferson Starship. 626, Act 3 Thy hand, Belinda (Dido). Exact Audio Copy V1. com online bookstore: Antony and Cleopatra (Arden Shakespeare: Third Series) Entire play in one page. Flac (Free Lossless Audio Codec) is a lossless compression format about 2:1 so a 600 MB WAV CD would be around 300 MB in FLAC. 就爱FLAC无损音乐下载「92flac. The March Of The Black Queen (take 4 - source: convention tape - remastered by Everly) 12. 630, Act 3 They tell us that you mighty powers above (Orazia). Quality: FLAC 24 bit / 44. Queen was a British rock band circa 1970-today (if you want to be technical). Yellow Magic Orchestra – YMO Ultimate Collection (2x SACD, 2003) SACD ISO + Hi-Res FLAC; Ryuichi Sakamoto – Thousand Knives (1978) [Japanese Reissue ‘2016] SACD ISO + Hi-Res FLAC. Download FLAC 16bit, 24bit Music of all genres and styles. Sеe Win 98 and Win 2000 to oЬtаin software program ѕuitable with eɑrlier variations of Home windows. Index of hindi flac Index of hindi flac. Released on 13 July 1973 by EMI Records in the UK and by Elektra Records in the US, it was recorded at Trident Studios and De Lane Lea Music Centre, London, with production by Roy Thomas Baker, John Anthony and the band members themselves. In n Out (feat. Index of ftp://89. Hot Lovin 11. We would like to show you a description here but the site won’t allow us. Performer: Queen Album: News Of The World Label: Virgin EMI Records, Universal Music. Track 01. 1 kHz (Tracks) Artist: Mathusalemherod Title: Discography (2018-2020) Released: 2020 Style: Power Electronic, Industrial, Ambient RAR Size: 894 Mb Tracklist & Download Links. FLAC stands for Free Lossless Audio Codec, an audio format similar to MP3, but lossless, meaning that audio is compressed in FLAC without any loss in quality. © Copyright 2020, The William Blake Archive. We would like to show you a description here but the site won’t allow us. The Hangman 05. The album was influenced by the hard rock, progressive rock and heavy metal of the day. flac 92 MB; FLAC. Queen Elizabeth II knighted 100-year-old Tom Moore, a World War II veteran who raised $40 million for Britain’s National Health Service. Capturing recorded music exactly how the artist intended it to be heard, 24-bit FLAC is the optimum digital format for music lovers. The Queen musical legacy has broken records worldwide. wav Pre-gap length 0:00:02. flac 24 MB; 06. 201/Music/Flac/Muzic FLAC/Queen - Greatest Hits - FLAC - HellraiserRG. Lead me to some peaceful gloom (Bonvica). Queen stormed through the dramatic shifts in the musical landscape during the latter-half of the 1970s, and had successfully remained within the charts and on the lips of music listeners; rightfully taking their place as one of the best rock acts at the turn of the 1980s. Every Day S A Weekend 10. 98: Queens of the Stone Age / Villains 140 / 150 Gram Vinyl Record + Download Code with D Side Etching AMAT. We would like to show you a description here but the site won’t allow us. Rush July 9, 2015 Kansas City, Missouri, USA Sprint Center "R40KC" Xavel Silver Masterpiece Series XAVEL-SMS-053 Japanese 3 CD set Contrast clause: The material in this torrent is different than any other recording of Kansas City July 9, 2015 known to appear on the tracker. The March Of The Black Queen (take 4 - source: convention tape - remastered by Everly) 12. Ava DuVernay's contemporary drama Queen Sugar, set in Louisiana, chronicles the lives and loves of the estranged Bordelon siblings: Nova (Rutina Wesley, True Blood), a worldly-wise journalist and activist; Charley (Dawn-Lyen Gardner, Unforgettable), the savvy wife and manager of a professional basketball star; and Ralph Angel (Kofi Siriboe. Depends what you like, they try out various different styles. flac: 2019-07-02: 艾怡良-寂寞无害. Here at Allflac. cue) Bitrate: lossless Covers: in archive. Pink Floyd - The Dark Side of the Moon - Time (FLAC). Queen's meteoric ascendancy during the 1970s has been well documented. Parent Directory - 001) Led Zeppelin - Stairway to Heaven. Flic-en-Flac. Hashes for ffmpeg-python-0. 5/10 Queen’s second album of 1974, after May was struck down by illness and was unable to tour, Sheer Heart Attack is the middle part of Queen’s golden trilogy of albums in the mid-1970s – it’s less epic than Queen II or Night Of the Opera but it’s still packed with entertaining tracks. Keep Yourself Alive 03:47. FLAC is the aⅽronym for Free Lossless Audio Codec. Queen music download : ANNOUNCE: Queen Manchester 1974 (FLAC) > Back to index If you are using this torrent, but don't see your username (and would like to) you just need to download the torrent again. flac 19 MB; 04. I Was Born To Sing The Blues. "Queen" is the eponymous debut studio album by British rock band Queen, released in July 1973. Jacob And The Angel 07. flac tracks, 96kHz/24Bit) | Bitrate. Released on 13 July 1973 by EMI Records in the UK and by Elektra Records in the US, it was recorded at Trident Studios and De Lane Lea Music Centre, London, with production by Roy Thomas Baker, John Anthony and the band members themselves. Artist: Rikard Sjoblom's Gungfly Title Of Album: Alone Together Year Of Release: 2020 Label (Catalog#): InsideOut Music [19439782702] Country: Sweden Genre: Progressive Rock Quality: FLAC (*image +. Virtual Open Day. Catalog #: 277 998 7 Style: Classic Rock Year: 1989 (2011) Format: FLAC (image +. (annual flac rant): The lack of JRiver official support for Flac is one of my biggest annoyances with one of the best pieces of software out there. flac 35 MB; 07. 1997-08-11 Starlake Amphitheater, Pittsburgh, PA USA [FLAC], FLAC rip from a commercial bootleg (audience). com you can download lossless music in popular formats FLAC, APE, ALAC, MP3, M4A. FLAC pt2 - mirror. Queen - Under Pressure [03:41] 8. 2 kHz (Tracks) Artist: Queen Title: The Works Released: 1984/2012 Style: Rock RAR Size: 1. Download metal, rock and alternative music. From their gloriously ambitious self-titled debut album of 1973 through to the album that put them in the superstar bracket, 1975 s A Night At The Opera, and beyond, this unique group carved out a singular path as the most visionary, inventive and charismatic band of that epic decade. Harmonica Breakdown [instrumental]. Bohemian Rhapsody, Prophets Song, Brighton Rock, Sheer Heart Attack, Another One Bites The Dust, Seven Seas Of Rhye, Killer Queen, Seaside Rendezvous, The Millionaire Waltz, Keep Yourself Alive, Innuendo, The March Of The Black Queen, 39", Good Old Fashioned Lover Boy. August 2011 EAC extraction logfile from 31. : Super MP3 Download is easy over 100 million MP3 for free from to download. flac 36 MB; 05. CD Ripper, Album Art Fixing, Asset UPnP Server. 1 kHz (Tracks) / FLAC 24 bit / 44. Queen - Bohemian Rhapsody Artist: Queen | Album: Bohemian Rhapsody | Style: Soundtrack | Year: 2018 | Quality: Flac 2. cue) Quality: Hi-Fi, lossless audio Sample Rate: 44. Format: FLAC Blue Blur - Sonic Generations Format: FLAC Bomberman Hero (1998) Format: FLAC Castlevania 64 - OST Format: FLAC Castlevania Symphony of the Night Original Soundtrack Format: FLAC Chrono Cross Format: FLAC Chrono Trigger OSV Format: FLAC Contra Spirits OST Format: FLAC Cosmic Osmo Format: FLAC Cro-Mag Rally-Bugdom Format: FLAC. Catalog #: 00602557842678 Style: Rock, Pop Rock, Hard Rock Year: 2017 Format: FLAC (image +. flac" WAVE TRACK 01 AUDIO TITLE "Going Back" PERFORMER "Larry Lurex" INDEX 01 00:00:00 TRACK 02 AUDIO TITLE "Mad the Swine" PERFORMER "Queen" INDEX 00 03:16:56 INDEX 01 03:16:57. Blessed Death (US) - Destined For Extinction (1987) [Lossless FLAC Vinyl Rip] Metal Finder. Queen mixes in FLAC (with links!) QueenZone user C_Matt is known within the community as one of the best "amateur" producers of several Queen albums and songs. 1 kHz / 16 Bit Source: 2 x CD Album Artist: Eric Clapton Album Name: Slowhand At 70 - Live At The Royal Albert Hall Label, Catalog: Eagle Rock Entertainment Ltd. Tear It Up 03:29 03. flac" WAVE. We only index and link to content provided by other sites. FLAC is the aⅽronym for Free Lossless Audio Codec. Download File flac xyz Queen Queen REISSUE REMASTERED FLAC 2019 WRE rar. Queen - I Want to Break Free [03. flac: 2019-07-02: Queen - We Are The Champions-. 43 gb Upload: nitroflare. 2 MB) Queen -The Concert In London (Disc 1) 05 - Magic. Virtual Open Day. your password. Made in DE. On our site you can download lossless music for free and without registration, favorite performers in flac format, for fans to listen to vinyl digitization - Vinyl rip, gourmets of the music world who want to listen to multi-channel music are offered - Audio-DVD, SACD, DTS 5. 0kHz Read More July 10, 2020 Jul 06, 2018 · [FLAC] [572MB] Album Original, The Weeknd - Starboy 2016 Starboy is the third studio album by Canadian singer The Weeknd. It was recorded at Trident Studios and De Lane Lea Music Centre, London, with production by Roy Thomas Baker (as Roy Baker), John Anthony and Queen. Queen Elizabeth II knighted 100-year-old Tom Moore, a World War II veteran who raised $40 million for Britain’s National Health Service. Virtual Open Day. Wide choice fresh albums, various artists compilations. 2 (Freeware) by Super MP3 Download Inc. Killer Queen (HQ snippet) (demo version - unknown source) 15. Battle For The Universe 12. Download File flac xyz Queen Queen REISSUE REMASTERED FLAC 2019 WRE rar. Search by IMSLP index. 00b: June 9 2013 at 19:18: Beatles: 0. I am a very big fan of music and so love to hear songs in CD format rather than mp3 format. The band performed a shortened (due to strict festival time limits [1] ) but intense set for a massive audience who were willing to get soaked to. Get access to over 600 exclusive live recordings with a nugs. The Dennington Queen Pub, in Suffolk offers a cosy atmosphere, real ales and home cooked food. 98: Queens of the Stone Age / Villains 140 / 150 Gram Vinyl Record + Download Code with D Side Etching AMAT. Queen - Another One Bites the Dust [04:53] 9. Having toured long, they recorded the second album, Queen II, which saw them enter the British Top 5. flac 68 MB 06 Dido and Aeneas, Z. Its public white sandy beach is one of the longest and nicest on the island, its lagoon is protected by the surrounding coral reefs, the beach provide spectacular views over the Indian Ocean horizon and of Le Morne Brabant Peninsula located in the south west of. Labels: Jefferson Starship. Sеe Win 98 and Win 2000 to oЬtаin software program ѕuitable with eɑrlier variations of Home windows. Artist: Winifred Atwell Title: The Queen of Piano (Remastered) Year Of Release: 2020 Label: Master Tape Records Genre: Blues, Jazz, Piano, Boogie Woogie Quality: FLAC (tracks) Total Time: 02:35:12 Total Size: 675 mb. Battle For The Universe 12. 00b: October 5 2013 at 22:55: Aerosmith - Greatest Hits - Flac. flac: 2019-07-02: 艾怡良-寂寞无害. Lead me to some peaceful gloom (Bonvica). Queen - Queen Forever Released: 2014 Genre: Rock Bitrate: FLAC & MP3 320 KBPS RAR / 406 MB / 503 MB; RAR / 145 MB / 178 MB Tracklist: Let Me In Your. Queen has to have one of the best back catalogues in music history. flac" WAVE TRACK 01 AUDIO TITLE "Going Back" PERFORMER "Larry Lurex" INDEX 01 00:00:00 TRACK 02 AUDIO TITLE "Mad the Swine" PERFORMER "Queen" INDEX 00 03:16:56 INDEX 01 03:16:57. Gucci Mane) (3:20)03. The archive of our site contains a collection of quality lossless music, the best flac music of various genres in flac, ape, wav format, which you can download for free and without registration. 63 Gb + 783 Mb Tracklist: 01. Catalog #: 00602557842678 Style: Rock, Pop Rock, Hard Rock Year: 2017 Format: FLAC (image +. Flic-en-Flac. 1 kHz (Tracks) / FLAC 24 bit / 44. If you want to download the entire concert in FLAC, the easiest way is to use the "Lossless zip" link located on the left side of the page where it says, "Play / Download. Having toured long, they recorded the second album, Queen II, which saw them enter the British Top 5. 00b: October 5 2013 at 22:55: A-Ha - The Singles 1984-2004 (Flac) 0. Navigation.